Begin Again 2014 (1080p Bluray x265 HEVC 10bit AAC 5.1 Tigole)

Info

Plot: A chance encounter between a disgraced music-business executive and a young singer-songwriter, new to Manhattan, turns into a promising collaboration between the two talents.


Mediainfo

General
Unique ID                                : 193907036425026297829506909246245913187 (0x91E12304870B80ADAC5AC748EC4D4263)
Complete name                            : Begin Again 2014 (1080p x265 10bit Tigole).mkv
Format                                   : Matroska
Format version                           : Version 4 / Version 2
File size                                : 2.07 GiB
Duration                                 : 1 h 44 min
Overall bit rate                         : 2 836 kb/s
Encoded date                             : UTC 2016-07-04 17:09:30
Writing application                      : mkvmerge v9.2.0 ('Photograph') 64bit
Writing library                          : libebml v1.3.3 + libmatroska v1.4.4

Video
ID                                       : 1
Format                                   : HEVC
Format/Info                              : High Efficiency Video Coding
Format profile                           : Main [email protected]@Main
Codec ID                                 : V_MPEGH/ISO/HEVC
Duration                                 : 1 h 44 min
Bit rate                                 : 2 487 kb/s
Width                                    : 1 920 pixels
Height                                   : 1 040 pixels
Display aspect ratio                     : 1.85:1
Frame rate mode                          : Constant
Frame rate                               : 23.976 (24000/1001) FPS
Color space                              : YUV
Chroma subsampling                       : 4:2:0
Bit depth                                : 10 bits
Bits/(Pixel*Frame)                       : 0.052
Stream size                              : 1.81 GiB (88%)
Writing library                          : x265 1.9+200-6098ba3e0cf16b11:[Windows][GCC 5.3.0][64 bit] 10bit
Encoding settings                        : wpp / ctu=64 / min-cu-size=8 / max-tu-size=32 / tu-intra-depth=1 / tu-inter-depth=1 / me=1 / subme=2 / merange=57 / no-rect / no-amp / max-merge=2 / temporal-mvp / no-early-skip / recursion-skip / rdpenalty=0 / no-tskip / no-tskip-fast / strong-intra-smoothing / no-lossless / no-cu-lossless / no-constrained-intra / no-fast-intra / open-gop / no-temporal-layers / interlace=0 / keyint=250 / min-keyint=23 / scenecut=40 / rc-lookahead=20 / lookahead-slices=6 / bframes=4 / bframe-bias=0 / b-adapt=2 / ref=3 / limit-refs=3 / no-limit-modes / weightp / no-weightb / aq-mode=1 / qg-size=32 / aq-strength=1.00 / cbqpoffs=0 / crqpoffs=0 / rd=3 / psy-rd=2.00 / rdoq-level=0 / psy-rdoq=0.00 / no-rd-refine / signhide / deblock=0:0 / sao / no-sao-non-deblock / b-pyramid / cutree / no-intra-refresh / rc=2 / pass / bitrate=2486 / qcomp=0.60 / qpmin=0 / qpmax=51 / qpstep=4 / cplxblur=20.0 / qblur=0.5 / ipratio=1.40 / pbratio=1.30
Default                                  : Yes
Forced                                   : No

Audio
ID                                       : 2
Format                                   : AAC
Format/Info                              : Advanced Audio Codec
Format profile                           : LC
Codec ID                                 : A_AAC
Duration                                 : 1 h 44 min
Bit rate                                 : 332 kb/s
Channel(s)                               : 6 channels
Channel positions                        : Front: L C R, Side: L R, LFE
Sampling rate                            : 48.0 kHz
Frame rate                               : 46.875 FPS (1024 spf)
Compression mode                         : Lossy
Delay relative to video                  : 20 ms
Stream size                              : 248 MiB (12%)
Language                                 : English
Default                                  : No
Forced                                   : No

Text #1
ID                                       : 3
Format                                   : VobSub
Muxing mode                              : zlib
Codec ID                                 : S_VOBSUB
Codec ID/Info                            : Picture based subtitle format used on DVDs
Duration                                 : 1 h 43 min
Bit rate                                 : 7 601 b/s
Count of elements                        : 1491
Stream size                              : 5.62 MiB (0%)
Language                                 : English
Default                                  : No
Forced                                   : No

Text #2
ID                                       : 4
Format                                   : VobSub
Muxing mode                              : zlib
Codec ID                                 : S_VOBSUB
Codec ID/Info                            : Picture based subtitle format used on DVDs
Duration                                 : 1 h 42 min
Bit rate                                 : 6 492 b/s
Count of elements                        : 1329
Stream size                              : 4.77 MiB (0%)
Language                                 : Spanish
Default                                  : No
Forced                                   : No

Menu
00:00:00.000                             : en:00:00:00.000
00:04:00.866                             : en:00:04:00.866
00:11:39.157                             : en:00:11:39.157
00:17:19.914                             : en:00:17:19.914
00:22:33.352                             : en:00:22:33.352
00:27:30.983                             : en:00:27:30.983
00:34:24.729                             : en:00:34:24.729
00:39:14.936                             : en:00:39:14.936
00:44:15.069                             : en:00:44:15.069
00:51:18.617                             : en:00:51:18.617
00:57:15.140                             : en:00:57:15.140
01:03:49.784                             : en:01:03:49.784
01:10:07.537                             : en:01:10:07.537
01:15:21.350                             : en:01:15:21.350
01:24:42.160                             : en:01:24:42.160
01:30:53.573                             : en:01:30:53.573
01:35:59.462                             : en:01:35:59.462
01:41:24.829                             : en:01:41:24.829

Download

File: Begin Again 2014 (1080p x265 10bit Tigole).mkv (2.07 GB)

Download: Google Drive

Leave a Reply

Your email address will not be published. Required fields are marked *