Avengers Endgame (2019) + Featurettes (2160p Bluray x265 HEVC 10bit AAC 7.1 Joy)

Info

Plot: After the devastating events of Avengers: Infinity War (2018), the universe is in ruins. With the help of remaining allies, the Avengers assemble once more in order to reverse Thanos’ actions and restore balance to the universe.

Encode

Source:

Release: Avengers.Endgame.2019.UHD.BluRay.Remux.2160p.HEVC.TrueHD.7.1.Atmos-MTeam.mkv (51.98 GBs)

Mediainfo

General 
Format : Matroska 
Format version : Version 4 / Version 2 
File size : 8.36 GiB 
Duration : 3 h 1 min 
Overall bit rate : 6 607 kb/s 
Movie name : Avengers Endgame 2019 (2160p x265 10bit FS95 Joy) [UTR] 
Encoded date : UTC 2019-08-04 03:27:21 
Writing application : mkvmerge v33.0.0 ('A Little Bit of Madness') 64-bit 
Writing library : libebml v1.3.7 + libmatroska v1.5.0 
Cover : Yes 
Attachments : cover.jpg 
Writing frontend : StaxRip v2.0.2.0, Encoded by JoyBell 

Video 
ID : 1 
Format : HEVC 
Format/Info : High Efficiency Video Coding 
Format profile : Main [email protected]@Main 
Codec ID : V_MPEGH/ISO/HEVC 
Duration : 3 h 1 min 
Bit rate : 5 999 kb/s 
Width : 3 840 pixels 
Height : 1 608 pixels 
Display aspect ratio : 2.40:1 
Frame rate mode : Constant 
Frame rate : 23.976 (24000/1001) FPS 
Color space : YUV 
Chroma subsampling : 4:2:0 
Bit depth : 10 bits 
Bits/(Pixel*Frame) : 0.041 
Stream size : 7.59 GiB (91%) 
Writing library : x265 3.0_Au+24-4217e691387c:[Windows][GCC 9.1.1][64 bit] 10bit 
Encoding settings : rc=abr / bitrate=6000 / qcomp=0.60 / qpstep=4 / stats-write=0 / stats-read=2 / cplxblur=20.0 / qblur=0.5 / qpmax=69 / qpmin=0 / no-lossless / no-cu-lossless / no-hevc-aq / no-aq-motion / aq-mode=3 / aq-strength=0.80 / cbqpoffs=0 / crqpoffs=0 / ipratio=1.40 / pbratio=1.30 / psy-rd=2.20 / psy-rdoq=1.15 / deblock=0:0 / ref=4 / limit-refs=3 / limit-modes / bframes=8 / b-adapt=2 / bframe-bias=20 / b-pyramid / no-b-intra / weightp / no-weightb / keyint=250 / min-keyint=23 / rc-lookahead=80 / gop-lookahead=0 / scenecut=40 / scenecut-bias=0.05 / ctu=64 / min-cu-size=8 / me=3 / subme=3 / merange=57 / rd=4 / no-rd-refine / ssim-rd / dynamic-rd=0.00 / rdoq-level=2 / rdpenalty=0 / cutree / sao / limit-sao / no-sao-non-deblock / no-rect / no-amp / open-gop / max-tu-size=32 / tu-inter-depth=1 / tu-intra-depth=1 / limit-tu=0 / qg-size=32 / wpp / no-pmode / no-pme / no-psnr / ssim / no-tskip / constrained-intra / strong-intra-smoothing / max-merge=3 / nr-intra=0 / nr-inter=0 / input-csp=1 / input-res=3840x1608 / interlace=0 / total-frames=260656 / level-idc=0 / high-tier=1cpuid=1111039 / frame-threads=3 / numa-pools=12 / log-level=2 / uhd-bd=0 / lookahead-slices=4 / radl=0 / no-splice / no-intra-refresh / signhide / temporal-mvp / no-analyze-src-pics / early-skip / rskip / no-fast-intra / no-tskip-fast / splitrd-skip / zone-count=0 / no-strict-cbr / no-rc-grain / no-const-vbv / no-allow-non-conformance / no-repeat-headers / annexb / no-aud / no-hrd / info / hash=0 / no-temporal-layers / sar=0 / overscan=0 / videoformat=5 / range=0 / colorprim=2 / transfer=2 / colormatrix=2 / chromaloc=0 / display-window=0 / max-cll=0,0 / min-luma=0 / max-luma=1023 / log2-max-poc-lsb=8 / vui-timing-info / vui-hrd-info / slices=1 / no-opt-qp-pps / no-opt-ref-list-length-pps / multi-pass-opt-rps / no-opt-cu-delta-qp / no-hdr / no-hdr-opt / no-dhdr10-opt / no-idr-recovery-sei / analysis-reuse-level=10 / scale-factor=0 / refine-intra=0 / refine-inter=0 / refine-mv=0 / refine-ctu-distortion=0 / ctu-info=0 / no-lowpass-dct / refine-analysis-type=0 / copy-pic=1 / max-ausize-factor=1.0 / no-dynamic-refine / no-single-sei / no-svt / qp-adaptation-range=1.00 
Default : Yes 
Forced : No 

Audio #1 
ID : 2 
Format : AAC 
Format/Info : Advanced Audio Codec 
Format profile : LC 
Codec ID : A_AAC 
Duration : 3 h 1 min 
Bit rate : 529 kb/s 
Channel(s) : 8 channels 
Channel positions : Front: L C R, Side: L R, Back: L R, LFE 
Sampling rate : 48.0 kHz 
Frame rate : 46.875 FPS (1024 spf) 
Compression mode : Lossy 
Delay relative to video : 9 ms 
Stream size : 672 MiB (8%) 
Language : English 
Default : No 
Forced : No 

Audio #2 
ID : 3 
Format : AAC 
Format/Info : Advanced Audio Codec 
Format profile : HE-AAC / LC 
Codec ID : A_AAC 
Duration : 3 h 1 min 
Bit rate : 67.5 kb/s 
Channel(s) : 2 channels 
Channel positions : Front: L R 
Sampling rate : 48.0 kHz / 24.0 kHz 
Frame rate : 23.438 FPS (1024 spf) 
Compression mode : Lossy 
Delay relative to video : 31 ms 
Stream size : 87.4 MiB (1%) 
Language : English 
Default : No 
Forced : No 

Subtitle #1 
ID : 4 
Format : VobSub 
Muxing mode : zlib 
Codec ID : S_VOBSUB 
Codec ID/Info : Picture based subtitle format used on DVDs 
Duration : 3 h 0 min 
Bit rate : 9 264 b/s 
Count of elements : 2633 
Stream size : 12.0 MiB (0%) 
Language : English 
Default : No 
Forced : No 

Subtitle #2 
ID : 5 
Format : VobSub 
Muxing mode : zlib 
Codec ID : S_VOBSUB 
Codec ID/Info : Picture based subtitle format used on DVDs 
Duration : 2 h 52 min 
Bit rate : 7 653 b/s 
Count of elements : 2223 
Stream size : 9.42 MiB (0%) 
Language : French 
Default : No 
Forced : No 

Subtitle #3 
ID : 6 
Format : VobSub 
Muxing mode : zlib 
Codec ID : S_VOBSUB 
Codec ID/Info : Picture based subtitle format used on DVDs 
Duration : 2 h 47 min 
Bit rate : 8 300 b/s 
Count of elements : 2197 
Stream size : 9.97 MiB (0%) 
Language : Spanish 
Default : No 
Forced : No 

Subtitle #4 
ID : 7 
Format : UTF-8 
Codec ID : S_TEXT/UTF8 
Codec ID/Info : UTF-8 Plain Text 
Duration : 2 h 53 min 
Bit rate : 73 b/s 
Count of elements : 1813 
Stream size : 93.1 KiB (0%) 
Language : Arabic 
Default : No 
Forced : No 

Subtitle #5 
ID : 8 
Format : UTF-8 
Codec ID : S_TEXT/UTF8 
Codec ID/Info : UTF-8 Plain Text 
Duration : 2 h 49 min 
Bit rate : 124 b/s 
Count of elements : 1840 
Stream size : 155 KiB (0%) 
Language : Bengali 
Default : No 
Forced : No 

Subtitle #6 
ID : 9 
Format : UTF-8 
Codec ID : S_TEXT/UTF8 
Codec ID/Info : UTF-8 Plain Text 
Duration : 2 h 47 min 
Bit rate : 48 b/s 
Count of elements : 1931 
Stream size : 59.2 KiB (0%) 
Language : Portuguese 
Default : No 
Forced : No 

Subtitle #7 
ID : 10 
Format : UTF-8 
Codec ID : S_TEXT/UTF8 
Codec ID/Info : UTF-8 Plain Text 
Duration : 3 h 0 min 
Bit rate : 36 b/s 
Count of elements : 2207 
Stream size : 47.8 KiB (0%) 
Language : Chinese 
Default : No 
Forced : No 

Subtitle #8 
ID : 11 
Format : UTF-8 
Codec ID : S_TEXT/UTF8 
Codec ID/Info : UTF-8 Plain Text 
Duration : 2 h 49 min 
Bit rate : 45 b/s 
Count of elements : 1518 
Stream size : 56.5 KiB (0%) 
Language : Danish 
Default : No 
Forced : No 

Subtitle #9 
ID : 12 
Format : UTF-8 
Codec ID : S_TEXT/UTF8 
Codec ID/Info : UTF-8 Plain Text 
Duration : 2 h 47 min 
Bit rate : 51 b/s 
Count of elements : 1759 
Stream size : 63.8 KiB (0%) 
Language : Dutch 
Default : No 
Forced : No 

Subtitle #10 
ID : 13 
Format : UTF-8 
Codec ID : S_TEXT/UTF8 
Codec ID/Info : UTF-8 Plain Text 
Duration : 2 h 49 min 
Bit rate : 79 b/s 
Count of elements : 2344 
Stream size : 98.1 KiB (0%) 
Language : Persian 
Default : No 
Forced : No 

Subtitle #11 
ID : 14 
Format : UTF-8 
Codec ID : S_TEXT/UTF8 
Codec ID/Info : UTF-8 Plain Text 
Duration : 2 h 52 min 
Bit rate : 46 b/s 
Count of elements : 2223 
Stream size : 58.3 KiB (0%) 
Language : French 
Default : No 
Forced : No 

Subtitle #12 
ID : 15 
Format : UTF-8 
Codec ID : S_TEXT/UTF8 
Codec ID/Info : UTF-8 Plain Text 
Duration : 2 h 48 min 
Bit rate : 67 b/s 
Count of elements : 1755 
Stream size : 83.0 KiB (0%) 
Language : Hebrew 
Default : No 
Forced : No 

Subtitle #13 
ID : 16 
Format : UTF-8 
Codec ID : S_TEXT/UTF8 
Codec ID/Info : UTF-8 Plain Text 
Duration : 3 h 0 min 
Bit rate : 137 b/s 
Count of elements : 2643 
Stream size : 183 KiB (0%) 
Language : Hindi 
Default : No 
Forced : No 

Subtitle #14 
ID : 17 
Format : UTF-8 
Codec ID : S_TEXT/UTF8 
Codec ID/Info : UTF-8 Plain Text 
Duration : 3 h 0 min 
Bit rate : 41 b/s 
Count of elements : 2194 
Stream size : 54.4 KiB (0%) 
Language : Indonesian 
Default : No 
Forced : No 

Subtitle #15 
ID : 18 
Format : UTF-8 
Codec ID : S_TEXT/UTF8 
Codec ID/Info : UTF-8 Plain Text 
Duration : 2 h 47 min 
Bit rate : 48 b/s 
Count of elements : 1756 
Stream size : 59.1 KiB (0%) 
Language : Malay 
Default : No 
Forced : No 

Subtitle #16 
ID : 19 
Format : UTF-8 
Codec ID : S_TEXT/UTF8 
Codec ID/Info : UTF-8 Plain Text 
Duration : 2 h 49 min 
Bit rate : 47 b/s 
Count of elements : 1933 
Stream size : 59.1 KiB (0%) 
Language : Portuguese 
Default : No 
Forced : No 

Subtitle #17 
ID : 20 
Format : UTF-8 
Codec ID : S_TEXT/UTF8 
Codec ID/Info : UTF-8 Plain Text 
Duration : 2 h 47 min 
Bit rate : 49 b/s 
Count of elements : 2195 
Stream size : 61.3 KiB (0%) 
Language : Spanish 
Default : No 
Forced : No 

Subtitle #18 
ID : 21 
Format : UTF-8 
Codec ID : S_TEXT/UTF8 
Codec ID/Info : UTF-8 Plain Text 
Duration : 3 h 0 min 
Bit rate : 87 b/s 
Count of elements : 2206 
Stream size : 115 KiB (0%) 
Language : Thai 
Default : No 
Forced : No 

Subtitle #19 
ID : 22 
Format : UTF-8 
Codec ID : S_TEXT/UTF8 
Codec ID/Info : UTF-8 Plain Text 
Duration : 2 h 49 min 
Bit rate : 50 b/s 
Count of elements : 1730 
Stream size : 63.0 KiB (0%) 
Language : Turkish 
Default : No 
Forced : No 

Subtitle #20 
ID : 23 
Format : UTF-8 
Codec ID : S_TEXT/UTF8 
Codec ID/Info : UTF-8 Plain Text 
Duration : 2 h 47 min 
Bit rate : 66 b/s 
Count of elements : 2114 
Stream size : 82.1 KiB (0%) 
Language : Vietnamese 
Default : No 
Forced : No 

Menu 
00:00:00.000 : en:One Last Surprise 
00:08:06.069 : en:"To The Garden" 
00:20:01.867 : en:Five Years Later 
00:26:15.449 : en:"A Time Heist" 
00:36:57.340 : en:"Time Travel Do-Over" 
00:43:20.765 : en:"I Fixed It" 
00:48:44.338 : en:Assembling The Avengers 
00:57:36.912 : en:"Get The Stones, Get Them Back" 
01:07:12.779 : en:Rogue Transmission 
01:16:02.683 : en:New York, 2012 
01:26:25.597 : en:Asgard, 2013 
01:32:20.285 : en:Morag, 2014 
01:38:55.972 : en:New Jersey, 1970 
01:48:12.528 : en:Vormir, 2014 
01:57:27.082 : en:"I Was Made For This" 
02:05:00.410 : en:Thanos' Return 
02:15:06.598 : en:Avengers Assemble 
02:25:50.617 : en:One Of The 14,000,605 
02:34:38.102 : en:"Part Of The Journey Is The End" 
02:43:04.066 : en:"Clip All The Branches" 
02:49:05.510 : en:End Credits

Screencaps

Download

File: Avengers Endgame 2019 (2160p x265 10bit FS95 Joy).mkv (8.4 GB) | Download: Google Drive

File: Avengers Endgame 2019 Digital Extras (1080p x265 10bit Joy).mkv (566.5 MB) | Download: Google Drive

10 thoughts on “Avengers Endgame (2019) + Featurettes (2160p Bluray x265 HEVC 10bit AAC 7.1 Joy)

Leave a Reply

Your email address will not be published. Required fields are marked *