Avengers: Endgame (2019) (1080p BRRip x264 AC3-EVO)

Info

Plot: After the devastating events of Avengers: Infinity War (2018), the universe is in ruins. With the help of remaining allies, the Avengers assemble once more in order to reverse Thanos’ actions and restore balance to the universe.

Mediainfo

General
Format                                   : Matroska
Format version                           : Version 4 / Version 2
File size                                : 5.57 GiB
Duration                                 : 3 h 1 min
Overall bit rate                         : 4 403 kb/s
Movie name                               : EVO
Encoded date                             : UTC 2019-07-30 23:08:31
Writing application                      : mkvmerge v6.7.0 ('Back to the Ground') 64bit built on Jan  8 2014 15:10:52
Writing library                          : libebml v1.3.0 + libmatroska v1.4.1

Video
ID                                       : 1
Format                                   : AVC
Format/Info                              : Advanced Video Codec
Format profile                           : [email protected]
Format settings, CABAC                   : Yes
Format settings, ReFrames                : 4 frames
Codec ID                                 : V_MPEG4/ISO/AVC
Duration                                 : 3 h 1 min
Bit rate                                 : 4 000 kb/s
Width                                    : 1 920 pixels
Height                                   : 800 pixels
Display aspect ratio                     : 2.40:1
Frame rate mode                          : Constant
Frame rate                               : 23.976 (24000/1001) FPS
Color space                              : YUV
Chroma subsampling                       : 4:2:0
Bit depth                                : 8 bits
Scan type                                : Progressive
Bits/(Pixel*Frame)                       : 0.109
Stream size                              : 4.98 GiB (89%)
Writing library                          : x264 core 142 r2479 dd79a61
Encoding settings                        : cabac=1 / ref=1 / deblock=1:0:0 / analyse=0x3:0x3 / me=dia / subme=1 / psy=1 / psy_rd=1.00:0.00 / mixed_ref=0 / me_range=16 / chroma_me=1 / trellis=0 / 8x8dct=1 / cqm=0 / deadzone=21,11 / fast_pskip=1 / chroma_qp_offset=0 / threads=12 / lookahead_threads=2 / sliced_threads=0 / nr=0 / decimate=1 / interlaced=0 / bluray_compat=0 / constrained_intra=0 / bframes=3 / b_pyramid=2 / b_adapt=1 / b_bias=0 / direct=1 / weightb=1 / open_gop=0 / weightp=1 / keyint=240 / keyint_min=24 / scenecut=40 / intra_refresh=0 / rc_lookahead=0 / rc=abr / mbtree=0 / bitrate=4000 / ratetol=1.0 / qcomp=0.60 / qpmin=0 / qpmax=69 / qpstep=4 / vbv_maxrate=62500 / vbv_bufsize=78125 / nal_hrd=none / filler=0 / ip_ratio=1.40 / pb_ratio=1.30 / aq=1:1.00
Default                                  : Yes
Forced                                   : No
Color range                              : Limited
Color primaries                          : BT.709
Transfer characteristics                 : BT.709
Matrix coefficients                      : BT.709

Audio
ID                                       : 2
Format                                   : AC-3
Format/Info                              : Audio Coding 3
Mode extension                           : CM (complete main)
Format settings, Endianness              : Big
Codec ID                                 : A_AC3
Duration                                 : 3 h 1 min
Bit rate mode                            : Constant
Bit rate                                 : 384 kb/s
Channel(s)                               : 6 channels
Channel positions                        : Front: L C R, Side: L R, LFE
Sampling rate                            : 48.0 kHz
Frame rate                               : 31.250 FPS (1536 spf)
Bit depth                                : 16 bits
Compression mode                         : Lossy
Delay relative to video                  : -5 ms
Stream size                              : 498 MiB (9%)
Title                                    : Surround
Language                                 : English
Default                                  : Yes
Forced                                   : No

Menu
00:00:00.000                             : :00:00:00.000
00:08:05.985                             : :00:08:05.902
00:20:01.784                             : :00:20:01.700
00:26:15.365                             : :00:26:15.282
00:36:57.256                             : :00:36:57.173
00:43:20.681                             : :00:43:20.598
00:48:44.254                             : :00:48:44.171
00:57:36.870                             : :00:57:36.745
01:07:12.737                             : :01:07:12.612
01:16:02.599                             : :01:16:02.516
01:26:25.513                             : :01:26:25.430
01:32:20.243                             : :01:32:20.118
01:38:55.930                             : :01:38:55.805
01:48:12.486                             : :01:48:12.361
01:57:27.040                             : :01:57:26.915
02:05:00.367                             : :02:05:00.243
02:15:06.556                             : :02:15:06.432
02:25:50.533                             : :02:25:50.450
02:34:38.060                             : :02:34:37.935
02:43:03.982                             : :02:43:03.899
02:49:05.593                             : :02:49:05.344

Screencaps

Download

File: Avengers Endgame.2019.1080p.BRRip.X264.AC3-EVO.mkv (5.57 GB)

Download: Google Drive

6 thoughts on “Avengers: Endgame (2019) (1080p BRRip x264 AC3-EVO)

Leave a Reply

Your email address will not be published. Required fields are marked *