Avengers: Endgame (2019) + Extras (1080p WEB-DL DD5.1 H264-FGT)

Info

Plot: After the devastating events of Avengers: Infinity War (2018), the universe is in ruins. With the help of remaining allies, the Avengers assemble once more in order to reverse Thanos’ actions and restore balance to the universe.

Mediainfo

General
Format                                   : Matroska
Format version                           : Version 4 / Version 2
File size                                : 6.23 GiB
Duration                                 : 3 h 1 min
Overall bit rate                         : 4 913 kb/s
Movie name                               : Avengers.Endgame.2019.1080p.WEB-DL.DD5.1.H264-FGT
Encoded date                             : UTC 2019-07-29 13:39:04
Writing application                      : mkvmerge v34.0.0 ('Sight and Seen') 64-bit
Writing library                          : libebml v1.3.7 + libmatroska v1.5.0
Cover                                    : Yes
Attachments                              : small_cover.jpg / small_cover_land.jpg / cover.jpg / cover_land.jpg

Video
ID                                       : 1
Format                                   : AVC
Format/Info                              : Advanced Video Codec
Format profile                           : [email protected]
Format settings, CABAC                   : Yes
Format settings, ReFrames                : 5 frames
Codec ID                                 : V_MPEG4/ISO/AVC
Duration                                 : 3 h 1 min
Bit rate                                 : 4 527 kb/s
Width                                    : 1 920 pixels
Height                                   : 804 pixels
Display aspect ratio                     : 2.40:1
Frame rate mode                          : Constant
Frame rate                               : 23.976 (23976/1000) FPS
Color space                              : YUV
Chroma subsampling                       : 4:2:0
Bit depth                                : 8 bits
Scan type                                : Progressive
Bits/(Pixel*Frame)                       : 0.122
Stream size                              : 5.74 GiB (92%)
Title                                    : Avengers.Endgame.2019.1080p.WEB-DL.DD5.1.H264-FGT
Language                                 : English
Default                                  : Yes
Forced                                   : No
Color range                              : Limited
Color primaries                          : BT.709
Transfer characteristics                 : BT.709
Matrix coefficients                      : BT.709

Audio
ID                                       : 2
Format                                   : AC-3
Format/Info                              : Audio Coding 3
Mode extension                           : CM (complete main)
Format settings, Endianness              : Big
Codec ID                                 : A_AC3
Duration                                 : 3 h 1 min
Bit rate mode                            : Constant
Bit rate                                 : 384 kb/s
Channel(s)                               : 6 channels
Channel positions                        : Front: L C R, Side: L R, LFE
Sampling rate                            : 48.0 kHz
Frame rate                               : 31.250 FPS (1536 spf)
Bit depth                                : 16 bits
Compression mode                         : Lossy
Delay relative to video                  : -43 ms
Stream size                              : 498 MiB (8%)
Title                                    : Avengers.Endgame.2019.1080p.WEB-DL.DD5.1.H264-FGT
Language                                 : English
Default                                  : Yes
Forced                                   : No

Text #1
ID                                       : 3
Format                                   : UTF-8
Codec ID                                 : S_TEXT/UTF8
Codec ID/Info                            : UTF-8 Plain Text
Duration                                 : 2 h 47 min
Bit rate                                 : 50 b/s
Count of elements                        : 2339
Stream size                              : 61.6 KiB (0%)
Language                                 : English
Default                                  : Yes
Forced                                   : No

Text #2
ID                                       : 4
Format                                   : UTF-8
Codec ID                                 : S_TEXT/UTF8
Codec ID/Info                            : UTF-8 Plain Text
Duration                                 : 3 h 0 min
Bit rate                                 : 52 b/s
Count of elements                        : 2641
Stream size                              : 68.9 KiB (0%)
Title                                    : SDH
Language                                 : English
Default                                  : No
Forced                                   : No

Menu
00:00:00.000                             : en:One Last Surprise
00:08:05.235                             : en:"To The Garden"
00:20:01.034                             : en:Five Years Later
00:26:14.615                             : en:"A Time Heist"
00:36:56.506                             : en:"Time Travel Do-Over"
00:43:19.931                             : en:"I Fixed It"
00:48:43.504                             : en:Assembling The Avengers
00:57:36.078                             : en:"Get The Stones, Get Them Back"
01:07:11.945                             : en:Rogue Transmission
01:16:01.849                             : en:New York, 2012
01:26:24.763                             : en:Asgard, 2013
01:32:19.451                             : en:Morag, 2014
01:38:55.138                             : en:New Jersey, 1970
01:48:11.694                             : en:Vormir, 2014
01:57:26.248                             : en:"I Was Made For This"
02:04:59.576                             : en:Thanos' Return
02:15:05.765                             : en:Avengers Assemble
02:25:49.784                             : en:One Of The 14,000,605
02:34:37.269                             : en:"Part Of The Journey Is The End"
02:43:03.233                             : en:"Clip All The Branches"
02:49:04.677                             : en:End Credits

Screencaps

Download

File: Avengers.Endgame.2019.1080p.WEB-DL.DD5.1.H264-FGT.mkv (6.23 GB)

Download: Google Drive

Avengers Endgame.2019.EXTRAS.1080p.WEB-DL.X264.AC3: Google Drive

19 thoughts on “Avengers: Endgame (2019) + Extras (1080p WEB-DL DD5.1 H264-FGT)

    1. Have added Evo version temporarily. Than might as well wait for Tigole etc. releases rather than adding more x264 ones.

  1. Please can you upload the Extras from Avengers.Endgame.2019.Digital.Extras.Only.720p.AMZN.WEBRip.DDP5.1.x264-NTG, there are all the bonus contents besides that one that are many things missing, please 🙏🏼

  2. Admin, any news on the IMAX ratio of endgame being released? It exists I have seen it. but will it be made available?

    1. The official date is like 2 weeks after I think. Though generally it comes out within few days, might be 2-3 days even.

      • Avengers Script Security and the Secret Scenes of Infinity War and Endgame (1080p) (6m20s)
      • Deleted Scenes (1080p) (5m2s)
      • Gag Reel (1080p) (1m59s)
      • Featurette (1080p) (26m46s)
  3. Thank you for the great work you do when uploading the movies, by chance do the extras bring Spanish subtitles?
    Greetings from Argentina

Leave a Reply to bot Cancel reply

Your email address will not be published. Required fields are marked *