Alita Battle Angel (2019) (2160p WEBRip x265 HEVC 10bit AAC 5.1 Joy)

Info

Plot: When Alita awakens with no memory of who she is in a future world she does not recognize, she is taken in by Ido, a compassionate doctor who realizes that somewhere in this abandoned cyborg shell is the heart and soul of a young woman with an extraordinary past.

Encode

Source:

Release: Alita.Battle.Angel.2019.INTERNAL.2160p.WEB.H265-DEFLATE.mkv (21.34 GBs)

Mediainfo

General 
Format : Matroska 
Format version : Version 4 / Version 2 
File size : 5.45 GiB 
Duration : 2 h 1 min 
Overall bit rate : 6 397 kb/s 
Movie name : Alita Battle Angel 2019 (2160p x265 10bit FS85 Joy) [UTR] 
Encoded date : UTC 2019-07-13 18:24:45 
Writing application : mkvmerge v32.0.0 ('Astral Progressions') 64-bit 
Writing library : libebml v1.3.7 + libmatroska v1.5.0 
Cover : Yes 
Attachments : cover.jpg 
Writing frontend : StaxRip v2.0.2.0, Encoded by JoyBell 

Video 
ID : 1 
Format : HEVC 
Format/Info : High Efficiency Video Coding 
Format profile : Main [email protected]@Main 
Codec ID : V_MPEGH/ISO/HEVC 
Duration : 2 h 1 min 
Bit rate : 5 996 kb/s 
Width : 3 840 pixels 
Height : 1 608 pixels 
Display aspect ratio : 2.40:1 
Frame rate mode : Constant 
Frame rate : 23.976 (24000/1001) FPS 
Color space : YUV 
Chroma subsampling : 4:2:0 
Bit depth : 10 bits 
Bits/(Pixel*Frame) : 0.041 
Stream size : 5.11 GiB (94%) 
Writing library : x265 3.0_Au+24-4217e691387c:[Windows][GCC 9.1.1][64 bit] 10bit 
Encoding settings : rc=abr / bitrate=6000 / qcomp=0.60 / qpstep=4 / stats-write=0 / stats-read=2 / cplxblur=20.0 / qblur=0.5 / qpmax=69 / qpmin=0 / no-lossless / no-cu-lossless / no-hevc-aq / no-aq-motion / aq-mode=3 / aq-strength=0.80 / cbqpoffs=0 / crqpoffs=0 / ipratio=1.40 / pbratio=1.30 / psy-rd=2.20 / psy-rdoq=1.15 / deblock=0:0 / ref=4 / limit-refs=3 / limit-modes / bframes=8 / b-adapt=2 / bframe-bias=20 / b-pyramid / no-b-intra / weightp / no-weightb / keyint=250 / min-keyint=23 / rc-lookahead=80 / gop-lookahead=0 / scenecut=40 / scenecut-bias=0.05 / ctu=64 / min-cu-size=8 / me=3 / subme=3 / merange=57 / rd=4 / no-rd-refine / ssim-rd / dynamic-rd=0.00 / rdoq-level=2 / rdpenalty=0 / cutree / sao / limit-sao / no-sao-non-deblock / no-rect / no-amp / open-gop / max-tu-size=32 / tu-inter-depth=1 / tu-intra-depth=1 / limit-tu=0 / qg-size=32 / wpp / no-pmode / no-pme / no-psnr / ssim / no-tskip / constrained-intra / strong-intra-smoothing / max-merge=3 / nr-intra=0 / nr-inter=0 / input-csp=1 / input-res=3840x1608 / interlace=0 / total-frames=175458 / level-idc=0 / high-tier=1cpuid=1111039 / frame-threads=3 / numa-pools=12 / log-level=2 / uhd-bd=0 / lookahead-slices=4 / radl=0 / no-splice / no-intra-refresh / signhide / temporal-mvp / no-analyze-src-pics / early-skip / rskip / no-fast-intra / no-tskip-fast / splitrd-skip / zone-count=0 / no-strict-cbr / no-rc-grain / no-const-vbv / no-allow-non-conformance / no-repeat-headers / annexb / no-aud / no-hrd / info / hash=0 / no-temporal-layers / sar=0 / overscan=0 / videoformat=5 / range=0 / colorprim=2 / transfer=2 / colormatrix=2 / chromaloc=0 / display-window=0 / max-cll=0,0 / min-luma=0 / max-luma=1023 / log2-max-poc-lsb=8 / vui-timing-info / vui-hrd-info / slices=1 / no-opt-qp-pps / no-opt-ref-list-length-pps / multi-pass-opt-rps / no-opt-cu-delta-qp / no-hdr / no-hdr-opt / no-dhdr10-opt / no-idr-recovery-sei / analysis-reuse-level=10 / scale-factor=0 / refine-intra=0 / refine-inter=0 / refine-mv=0 / refine-ctu-distortion=0 / ctu-info=0 / no-lowpass-dct / refine-analysis-type=0 / copy-pic=1 / max-ausize-factor=1.0 / no-dynamic-refine / no-single-sei / no-svt / qp-adaptation-range=1.00 
Default : Yes 
Forced : No 

Audio 
ID : 2 
Format : AAC 
Format/Info : Advanced Audio Codec 
Format profile : LC 
Codec ID : A_AAC 
Duration : 2 h 1 min 
Bit rate : 397 kb/s 
Channel(s) : 6 channels 
Channel positions : Front: L C R, Side: L R, LFE 
Sampling rate : 48.0 kHz 
Frame rate : 46.875 FPS (1024 spf) 
Compression mode : Lossy 
Delay relative to video : 9 ms 
Stream size : 346 MiB (6%) 
Language : English 
Default : No 
Forced : No 

Subtitle #1 
ID : 3 
Format : UTF-8 
Codec ID : S_TEXT/UTF8 
Codec ID/Info : UTF-8 Plain Text 
Duration : 1 h 55 min 
Bit rate : 40 b/s 
Count of elements : 1347 
Stream size : 34.0 KiB (0%) 
Language : English 
Default : No 
Forced : No 

Subtitle #2 
ID : 4 
Format : UTF-8 
Codec ID : S_TEXT/UTF8 
Codec ID/Info : UTF-8 Plain Text 
Duration : 1 h 55 min 
Bit rate : 45 b/s 
Count of elements : 1588 
Stream size : 38.5 KiB (0%) 
Language : English 
Default : No 
Forced : No 

Subtitle #3 
ID : 5 
Format : UTF-8 
Codec ID : S_TEXT/UTF8 
Codec ID/Info : UTF-8 Plain Text 
Duration : 2 h 1 min 
Bit rate : 36 b/s 
Count of elements : 1239 
Stream size : 32.8 KiB (0%) 
Language : Spanish 
Default : No 
Forced : No 

Subtitle #4 
ID : 6 
Format : UTF-8 
Codec ID : S_TEXT/UTF8 
Codec ID/Info : UTF-8 Plain Text 
Duration : 1 h 57 min 
Bit rate : 59 b/s 
Count of elements : 1238 
Stream size : 51.6 KiB (0%) 
Language : Arabic 
Default : No 
Forced : No 

Subtitle #5 
ID : 7 
Format : UTF-8 
Codec ID : S_TEXT/UTF8 
Codec ID/Info : UTF-8 Plain Text 
Duration : 2 h 1 min 
Bit rate : 31 b/s 
Count of elements : 1261 
Stream size : 27.9 KiB (0%) 
Language : Chinese 
Default : No 
Forced : No 

Subtitle #6 
ID : 8 
Format : UTF-8 
Codec ID : S_TEXT/UTF8 
Codec ID/Info : UTF-8 Plain Text 
Duration : 2 h 1 min 
Bit rate : 38 b/s 
Count of elements : 954 
Stream size : 34.5 KiB (0%) 
Language : Danish 
Default : No 
Forced : No 

Subtitle #7 
ID : 9 
Format : UTF-8 
Codec ID : S_TEXT/UTF8 
Codec ID/Info : UTF-8 Plain Text 
Duration : 1 h 55 min 
Bit rate : 42 b/s 
Count of elements : 1257 
Stream size : 35.6 KiB (0%) 
Language : Dutch 
Default : No 
Forced : No 

Subtitle #8 
ID : 10 
Format : UTF-8 
Codec ID : S_TEXT/UTF8 
Codec ID/Info : UTF-8 Plain Text 
Duration : 1 h 56 min 
Bit rate : 67 b/s 
Count of elements : 1348 
Stream size : 57.3 KiB (0%) 
Language : Persian 
Default : No 
Forced : No 

Subtitle #9 
ID : 11 
Format : UTF-8 
Codec ID : S_TEXT/UTF8 
Codec ID/Info : UTF-8 Plain Text 
Duration : 2 h 1 min 
Bit rate : 34 b/s 
Count of elements : 1255 
Stream size : 30.3 KiB (0%) 
Language : Finnish 
Default : No 
Forced : No 

Subtitle #10 
ID : 12 
Format : UTF-8 
Codec ID : S_TEXT/UTF8 
Codec ID/Info : UTF-8 Plain Text 
Duration : 2 h 1 min 
Bit rate : 41 b/s 
Count of elements : 1261 
Stream size : 37.1 KiB (0%) 
Language : French 
Default : No 
Forced : No 

Subtitle #11 
ID : 13 
Format : UTF-8 
Codec ID : S_TEXT/UTF8 
Codec ID/Info : UTF-8 Plain Text 
Duration : 1 h 55 min 
Bit rate : 63 b/s 
Count of elements : 1008 
Stream size : 53.9 KiB (0%) 
Language : Greek 
Default : No 
Forced : No 

Subtitle #12 
ID : 14 
Format : UTF-8 
Codec ID : S_TEXT/UTF8 
Codec ID/Info : UTF-8 Plain Text 
Duration : 1 h 56 min 
Bit rate : 55 b/s 
Count of elements : 1309 
Stream size : 46.9 KiB (0%) 
Language : Hebrew 
Default : No 
Forced : No 

Subtitle #13 
ID : 15 
Format : UTF-8 
Codec ID : S_TEXT/UTF8 
Codec ID/Info : UTF-8 Plain Text 
Duration : 2 h 1 min 
Bit rate : 40 b/s 
Count of elements : 1320 
Stream size : 35.7 KiB (0%) 
Language : Indonesian 
Default : No 
Forced : No 

Subtitle #14 
ID : 16 
Format : UTF-8 
Codec ID : S_TEXT/UTF8 
Codec ID/Info : UTF-8 Plain Text 
Duration : 1 h 56 min 
Bit rate : 38 b/s 
Count of elements : 1258 
Stream size : 32.9 KiB (0%) 
Language : Norwegian 
Default : No 
Forced : No 

Subtitle #15 
ID : 17 
Format : UTF-8 
Codec ID : S_TEXT/UTF8 
Codec ID/Info : UTF-8 Plain Text 
Duration : 1 h 56 min 
Bit rate : 40 b/s 
Count of elements : 1259 
Stream size : 34.9 KiB (0%) 
Language : Portuguese 
Default : No 
Forced : No 

Subtitle #16 
ID : 18 
Format : UTF-8 
Codec ID : S_TEXT/UTF8 
Codec ID/Info : UTF-8 Plain Text 
Duration : 2 h 1 min 
Bit rate : 36 b/s 
Count of elements : 1262 
Stream size : 32.5 KiB (0%) 
Language : Swedish 
Default : No 
Forced : No 

Subtitle #17 
ID : 19 
Format : UTF-8 
Codec ID : S_TEXT/UTF8 
Codec ID/Info : UTF-8 Plain Text 
Duration : 2 h 1 min 
Bit rate : 86 b/s 
Count of elements : 1264 
Stream size : 77.5 KiB (0%) 
Language : Thai 
Default : No 
Forced : No 

Subtitle #18 
ID : 20 
Format : UTF-8 
Codec ID : S_TEXT/UTF8 
Codec ID/Info : UTF-8 Plain Text 
Duration : 1 h 56 min 
Bit rate : 62 b/s 
Count of elements : 1357 
Stream size : 53.3 KiB (0%) 
Language : Vietnamese 
Default : No 
Forced : No 

Menu 
00:00:01.000 : en:Chapter 01 
00:03:29.000 : en:Chapter 02 
00:07:52.000 : en:Chapter 03 
00:10:08.000 : en:Chapter 04 
00:13:07.000 : en:Chapter 05 
00:15:07.000 : en:Chapter 06 
00:18:05.000 : en:Chapter 07 
00:22:59.000 : en:Chapter 08 
00:25:36.000 : en:Chapter 09 
00:31:41.000 : en:Chapter 10 
00:33:30.000 : en:Chapter 11 
00:36:33.000 : en:Chapter 12 
00:38:31.000 : en:Chapter 13 
00:42:06.000 : en:Chapter 14 
00:45:59.000 : en:Chapter 15 
00:48:32.000 : en:Chapter 16 
00:52:58.000 : en:Chapter 17 
00:55:15.000 : en:Chapter 18 
01:00:40.000 : en:Chapter 19 
01:02:57.000 : en:Chapter 20 
01:05:17.000 : en:Chapter 21 
01:10:51.000 : en:Chapter 22 
01:13:38.000 : en:Chapter 23 
01:16:36.000 : en:Chapter 24 
01:18:53.000 : en:Chapter 25 
01:22:49.000 : en:Chapter 26 
01:24:56.000 : en:Chapter 27 
01:28:26.000 : en:Chapter 28 
01:33:19.000 : en:Chapter 29 
01:36:09.000 : en:Chapter 30 
01:41:55.000 : en:Chapter 31 
01:45:24.000 : en:Chapter 32 
01:48:17.000 : en:Chapter 33 
01:51:44.000 : en:Chapter 34 
01:54:44.000 : en:Chapter 35 
01:56:52.000 : en:Chapter 36

Screencaps

Download

File: Alita Battle Angel 2019 (2160p x265 10bit FS85 Joy).mkv (5.5 GB)

Download: Google Drive

5 thoughts on “Alita Battle Angel (2019) (2160p WEBRip x265 HEVC 10bit AAC 5.1 Joy)

    1. There’s only single part though. The download size is mentioned in the download tab as well.
      If you’re confused by the 26 mentioned, it’s just short for 2160p in naming sense.

Leave a Reply

Your email address will not be published. Required fields are marked *