12 Years a Slave (2013) (1080p BluRay x265 HEVC 10bit AAC 5.1 afm72)

Info

Plot: In the pre-Civil War United States, Solomon Northup, a free black man from upstate New York, is abducted and sold into slavery. Facing cruelty as well as unexpected kindnesses Solomon struggles not only to stay alive, but to retain his dignity. In the twelfth year of his unforgettable odyssey, Solomon’s chance meeting with a Canadian abolitionist will forever alter his life.

Encode

Source:

Release: 
12.Years.A.Slave.2013.PROPER.COMPLETE.BluRay-CCAT

Mediainfo

General 
Format : Matroska 
Format version : Version 4 / Version 2 
File size : 6.49 GiB 
Duration : 2 h 14 min 
Overall bit rate : 6 928 kb/s 
Movie name : 12 Years a Slave 
Encoded date : UTC 2018-12-22 11:34:30 
Writing application : mkvmerge v29.0.0 ('Like It Or Not') 64-bit 
Writing library : libebml v1.3.6 + libmatroska v1.4.9 
Cover : Yes 
Attachments : cover.jpg 
Writing frontend : StaxRip v2.0.0.0 

Video 
ID : 1 
Format : HEVC 
Format/Info : High Efficiency Video Coding 
Format profile : Main [email protected]@Main 
Codec ID : V_MPEGH/ISO/HEVC 
Duration : 2 h 14 min 
Bit rate : 6 412 kb/s 
Width : 1 920 pixels 
Height : 800 pixels 
Display aspect ratio : 2.40:1 
Frame rate mode : Constant 
Frame rate : 23.976 (24000/1001) FPS 
Color space : YUV 
Chroma subsampling : 4:2:0 
Bit depth : 10 bits 
Bits/(Pixel*Frame) : 0.174 
Stream size : 6.01 GiB (93%) 
Writing library : x265 2.9+4-471726d3a046:[Windows][GCC 8.2.0][64 bit] 10bit 
Encoding settings : cpuid=1049583 / frame-threads=3 / numa-pools=8 / wpp / no-pmode / no-pme / no-psnr / no-ssim / log-level=2 / input-csp=1 / input-res=1920x800 / interlace=0 / total-frames=193009 / level-idc=0 / high-tier=1 / uhd-bd=0 / ref=4 / no-allow-non-conformance / no-repeat-headers / annexb / no-aud / no-hrd / info / hash=0 / no-temporal-layers / open-gop / min-keyint=23 / keyint=250 / gop-lookahead=0 / bframes=8 / b-adapt=2 / b-pyramid / bframe-bias=0 / rc-lookahead=80 / lookahead-slices=4 / scenecut=40 / radl=0 / no-intra-refresh / ctu=64 / min-cu-size=8 / rect / no-amp / max-tu-size=32 / tu-inter-depth=1 / tu-intra-depth=1 / limit-tu=0 / rdoq-level=2 / dynamic-rd=0.00 / no-ssim-rd / signhide / no-tskip / nr-intra=0 / nr-inter=0 / no-constrained-intra / no-strong-intra-smoothing / max-merge=3 / limit-refs=3 / limit-modes / me=3 / subme=5 / merange=57 / temporal-mvp / weightp / no-weightb / no-analyze-src-pics / deblock=-3:-3 / no-sao / no-sao-non-deblock / rd=4 / no-early-skip / rskip / no-fast-intra / no-tskip-fast / no-cu-lossless / no-b-intra / no-splitrd-skip / rdpenalty=0 / psy-rd=2.00 / psy-rdoq=1.00 / no-rd-refine / no-lossless / cbqpoffs=0 / crqpoffs=0 / rc=crf / crf=20.0 / qcomp=0.60 / qpstep=4 / stats-write=0 / stats-read=0 / ipratio=1.40 / pbratio=1.30 / aq-mode=3 / aq-strength=1.00 / cutree / zone-count=0 / no-strict-cbr / qg-size=32 / no-rc-grain / qpmax=69 / qpmin=0 / no-const-vbv / sar=0 / overscan=0 / videoformat=5 / range=0 / colorprim=2 / transfer=2 / colormatrix=2 / chromaloc=0 / display-window=0 / max-cll=0,0 / min-luma=0 / max-luma=1023 / log2-max-poc-lsb=8 / vui-timing-info / vui-hrd-info / slices=1 / no-opt-qp-pps / no-opt-ref-list-length-pps / no-multi-pass-opt-rps / scenecut-bias=0.05 / no-opt-cu-delta-qp / aq-motion / no-hdr / no-hdr-opt / no-dhdr10-opt / no-idr-recovery-sei / analysis-reuse-level=5 / scale-factor=0 / refine-intra=0 / refine-inter=0 / refine-mv=0 / no-limit-sao / ctu-info=0 / no-lowpass-dct / refine-mv-type=0 / copy-pic=1 / max-ausize-factor=1.0 / no-dynamic-refine / no-single-sei 
Default : Yes 
Forced : No 

Audio 
ID : 2 
Format : AAC 
Format/Info : Advanced Audio Codec 
Format profile : LC 
Codec ID : A_AAC 
Duration : 2 h 14 min 
Bit rate : 504 kb/s 
Channel(s) : 6 channels 
Channel positions : Front: L C R, Side: L R, LFE 
Sampling rate : 48.0 kHz 
Frame rate : 46.875 FPS (1024 spf) 
Compression mode : Lossy 
Delay relative to video : 20 ms 
Stream size : 483 MiB (7%) 
Language : English 
Default : No 
Forced : No 

Subtitle 
ID : 3 
Format : PGS 
Muxing mode : zlib 
Codec ID : S_HDMV/PGS 
Codec ID/Info : Picture based subtitle format used on BDs/HD-DVDs 
Duration : 2 h 12 min 
Bit rate : 31.7 kb/s 
Count of elements : 3332 
Stream size : 30.0 MiB (0%) 
Title : SDH 
Language : English 
Default : Yes 
Forced : No 

Menu 
00:00:00.000 : en:Chapter 01 
00:06:02.862 : en:Chapter 02 
00:10:13.529 : en:Chapter 03 
00:12:58.778 : en:Chapter 04 
00:16:24.650 : en:Chapter 05 
00:19:18.866 : en:Chapter 06 
00:25:01.708 : en:Chapter 07 
00:27:48.458 : en:Chapter 08 
00:32:07.967 : en:Chapter 09 
00:36:07.874 : en:Chapter 10 
00:39:39.126 : en:Chapter 11 
00:45:16.714 : en:Chapter 12 
00:47:36.144 : en:Chapter 13 
00:52:26.977 : en:Chapter 14 
00:54:34.187 : en:Chapter 15 
00:59:34.028 : en:Chapter 16 
01:01:47.704 : en:Chapter 17 
01:06:04.543 : en:Chapter 18 
01:09:55.691 : en:Chapter 19 
01:12:47.988 : en:Chapter 20 
01:15:27.689 : en:Chapter 21 
01:18:31.873 : en:Chapter 22 
01:21:08.488 : en:Chapter 23 
01:23:46.688 : en:Chapter 24 
01:26:25.972 : en:Chapter 25 
01:28:18.876 : en:Chapter 26 
01:31:22.518 : en:Chapter 27 
01:34:10.144 : en:Chapter 28 
01:38:14.013 : en:Chapter 29 
01:41:50.312 : en:Chapter 30 
01:45:18.895 : en:Chapter 31 
01:53:09.908 : en:Chapter 32 
01:54:46.504 : en:Chapter 33 
02:00:22.215 : en:Chapter 34 
02:04:07.398 : en:Chapter 35 
02:07:25.721 : en:Chapter 36

Screencaps

Download

File: 12 Years a Slave (2013) (1080p BluRay x265 afm72).mkv (6.5 GB)

Download: Google Drive

Featurettes: Google Drive

Leave a Reply

Your email address will not be published. Required fields are marked *